» » Crude - Informatik, 105

Crude - Informatik, 105 download mp3

Crude - Informatik, 105 download mp3
Title:
Informatik, 105
Performer:
Style:
Experimental
Released:
MP3 album size:
1354 mb
Other formats:
AUD VOC MIDI RA ADX DXD MOD
Genre:
Rating:
4.1 ✪

All the great songs and lyrics from the "CMJ New Music, Vol. 105" album ont he Web's largest and most authoritative lyrics resource. Style:MLA Chicago APA. "CMJ New Music, Vol. 105 Album. Missing lyrics by ? Know any other songs by ?

Listen to music from Informatik like The World Belongs to Us, Falling & more. Find the latest tracks, albums, and images from Informatik. Da5id Din and Matthew Crofoot, two Boston studio owners, decided to become Informatik in 1993 after recognizing common musical tastes.

Published: 5 years ago. Duration: 38:58. By. 2 Chainz Interview On The Breakfast Club - Power 10. FM. Download. 6. Power 10. FM Breakfast Club Full Audio 3-1-19 - 2 Chainz & Steve Stoute Interview. 3-1 - Today on the show 2 Chainz stopped by and he spoke about his new album "Rap or Go to the League", Lebron James,.

full condensed blue highlight denotes album pick.

Il nuovo album di Halsey è in cantiere e molto presto verrà alla luce. Halsey promette: entro il 2019 ci sarà un nuovo album. La cantante americana ha rassicurato i suoi fan con un messaggio su Twitter.

03 AUDIO TITLE "Peril Eyes" PERFORMER "Informatik" INDEX 00 09:32:61 INDEX 01 09:35:57 TRACK 04 AUDIO TITLE "I Confess (Repentance Mix)" PERFORMER "Informatik" INDEX 00 13:33:70 INDEX 01 13:37:47 TRACK 05 AUDIO TITLE "Immigrant Song" PERFORMER "Informatik" INDEX 00 17:57:20 INDEX 01 18:02:15 TRACK 06 AUDIO TITLE "Silicon" PERFORMER "Informatik" INDEX.

105 Grams (2017) - download mp3 or listen online. 105 Grams (2017) - download the album and listen online. On this page you can listen to the album, get information about the album, see the list of songs and much more. Listen online and stay in a good mood. Org Album: 105 Grams (2017).

Tracklist

1 Brainwash Sequence 53 20:41
2 Beta Test 29:40
3 Cyto Fuk Thrust 5:21
4 Shit Noise Anthem 11:53

Notes

Recorded August-October 1997.