» » Various - Like, Wow - Wipeout! Australian Pop Of The 80s

Various - Like, Wow - Wipeout! Australian Pop Of The 80s download mp3

Various - Like, Wow - Wipeout! Australian Pop Of The 80s download mp3
Title:
Like, Wow - Wipeout! Australian Pop Of The 80s
Performer:
Style:
Pop Rock, Pub Rock, Synth-pop, Alternative Rock
Released:
MP3 album size:
1123 mb
Other formats:
MPC AU AAC DTS AIFF AHX AHX
Genre:
Rating:
4.6 ✪

17, Dynamic Range Meter . 1 log date: 2019-01-24 20:03:18. Analyzed: Like, Wow - Wipeout! Australian Pop Of The 80s -. DR Peak RMS Duration Track -DR6 -. 0 dB -. 0 dB 3:13 01-Like Wow Wipeout DR12 . 0 dB -1. 7 dB 4:01 02-Dreams Of Ordinary Men DR8 . 5 dB 3:39 03-Breakaway DR10 . 6 dB 3:01 04-Happy Man DR10 . 0. dB -1. 2 dB 2:42 05-Gimme Some Lovin' DR9 . 8 dB 3:32 06-Let's Kiss DR8 . 5 dB 3:51 07-Moonlight Marvel DR9 -. 2 dB -. 5 dB 3:41 08-Wanna Be Up DR9 . 9 dB 4:28 09-Bitter.

Hoodoo Gurus - Like, Wow - Wipeout! Dragon - Dreams Of Ordinary Men Big Pig - Breakaway Sunnyboys - Happy Man GANGgajang - Gimme Some Lovin' Models - Let's Kiss Wickety Wak - Moonlight Marvel Chantoozies - Wanna Be Up The Venetians - Bitter Tears Men At Work - Everything I Need Koo De Tah - Too Young For Promises Indecent Obsession - Say Goodbye Johnny Diesel & The Injectors - Don't Need Love Jenny Morris - She Has To Be Loved. The Sports - How Come Christie Allen - Baby Get Away Rick Springfield - Affair Of The Heart James Reyne - Fall Of Rome Tim Finn - Fraction Too Much Friction QED - Everywhere I Go Machinations - No Say In It Matt Finish - Short Note Big Red - The Traveller Psuedo Echo - Love An Adventure Jimmy Barnes - Ride The Night Away Jo Jo Zep & The Falcons - Taxi Mary Choirboys - Boys.

Australian Pop of 80s, Vol. 5: Like Wow - Wipeout.

STYLE: Pop, Pop Rock, Soft Rock, Electronic. LABEL: Sony BMG Music Entertainment. File format: MP3. QUALITY: 320 kbps. 01. Hoodoo Gurus - Like, Wow - Wipeout! 02. Dragon - Dreams Of Ordinary Men 03. Big Pig - Breakaway 04. Sunnyboys - Happy Man 05. GANGgajang - Gimme Some Lovin' 06. Models - Let's Kiss 07. Wickety Wak - Moonlight Marvel 08. Chantoozies - Wanna Be Up 09. The Venetians - Bitter Tears 10. Men At Work - Everything I Need 11.

Disc 1 . ike, Wow Wipeout - Hoodoo Gurus . reams Of Ordinary Men - Dragon . reakaway - Big Pig . appy Man - Sunnyboys . imme Some Lovin' - GANGgajang . ets's Kiss - Models . oonlight Marvel - Wickety Wak . anna Be Up - Chantoozies . itter Tears - The venetians 1. verything I Need - Men At Work 1. oo Young For Promises - Ko De Tah. 1. ay Goodbye - Indecent Obsession 1. on't Need Love - Johnny Diesel & The Injectors 1. he Has To Be Loved - Jenny Morris 1. tand Up - The Angels 1. Can't Believe - Girl Overboard 1. ust Like Fire Would - The Saints 1. own . .

Australian-only two CD set showcasing the best of Aussie Pop of the '80s. Features original hit versions. mastered from the best possible sources with many titles remastered from the original studio tapes for this release. a showcase of titles requested for this series. and often hard to come by - such as, (with her often overshadowed UK made ) and. The set also features classics from,,,, and and many others. Various Artists - Like, Wow - Wipeout!: Australian Pop Of The 80's Vol. 5 (2014). Tracklist: Disc One: 01.

cc s-Vol-5-Like C-FLAC Music. com Various Artists: Australian Pop Of The 80s Vol 5 Like, Wow Wipeout 2014 EAC FLAC Music. am Various Artists - Australian Pop Of The 80 s Vol 5 Like Wow Wipeout 2014 EAC FLAC Music. to Various Artists - Australian Pop Of The 80's Vol 5 Like, Wow Wipeout 2014 EAC FLAC. You cannot download any of those files from here.

mp3 (. MB). Description. Carefully selected by compilation producer Brent James. Volume 5 brings together more all-time Aussie Classics and rare titles representing the three decades 60. 0s and 80s – arguably our most creative and formative years for Australian music – containing seldom reissued titles or in many cases never before issued on CD. As with the earlier four volumes in the series. again all three sets contain extensive liner notes penned by Brent James with an all-State Chart performance. CD1: 1. Hoodoo Gurus – Like, Wow – Wipeout 2. Dragon – Dreams Of Ordinary Men 3. Big Pig – Breakaway 4. Sunnyboys – Happy Man 5. Ganggajang – Gimme Some Lovin’ 6. Models – Let’s Kiss 7. Wickety Wak – Moonlight Marvel 8. Chantoozies – Wanna Be Up 9. The Venetians – Bitter Tears.

Disc 1/01 Like, Wow Wipeout - Hoodoo Gurus. 1 MB. Disc 1/02 Dreams Of Ordinary Men - Dragon. Tracklist 1-1 –Hoodoo Gurus Like, Wow - Wipeout! (2005 Digital Remaster) 1-2 –Dragon (5) Dreams Of Ordinary Men 1-3 –Big Pig Breakaway 1-4 –Sunnyboys Happy Man 1-5 –GANGgajang Gimme Some Lovin' 1-6 –Models (2) Let's Kiss 1-7 –Wickety Wak Moonlight Marvel 1-8 –The Chantoozies Wanna Be Up 1-9 –The Venetians Bitter Tears 1-10 –Men At Work Everything I Need (Album Version)

Tracklist

1-1 Hoodoo Gurus Like, Wow - Wipeout! (2005 Digital Remaster)
1-2 Dragon Dreams Of Ordinary Men
1-3 Big Pig Breakaway
1-4 Sunnyboys Happy Man
1-5 GANGgajang Gimme Some Lovin'
1-6 Models Let's Kiss
1-7 Wickety Wak Moonlight Marvel
1-8 The Chantoozies Wanna Be Up
1-9 The Venetians Bitter Tears
1-10 Men At Work Everything I Need (Album Version)
1-11 Koo Dé Tah Too Young For Promises (Radio Edit)
1-12 Indecent Obsession Say Goodbye
1-13 Johnny Diesel & The Injectors Don't Need Love
1-14 Jenny Morris She Has To Be Loved
1-15 The Angels Stand Up
1-16 Girl Overboard I Can't Believe
1-17 The Saints Just Like Fire Would
1-18 Mi-Sex Down The Line (Making Love On The Telephone)
1-19 Little River Band We Two
1-20 Painters And Dockers Die Yuppie Die
1-21 James Freud And The Radio Stars Modern Girl
2-1 The Sports How Come
2-2 Christie Allen Baby Get Away
2-3 Rick Springfield Affair Of The Heart
2-4 James Reyne Fall Of Rome
2-5 Tim Finn Fraction Too Much Friction
2-6 Q E D Everywhere I Go
2-7 Machinations No Say In It
2-8 Matt Finish Short Note
2-9 Big Red The Traveller
2-10 Pseudo Echo Love An Adventure
2-11 Jimmy Barnes Ride The Night Away
2-12 Jo Jo Zep and the Falcons Taxi Mary
2-13 Choirboys Boys Will Be Boys
2-14 Mondo Rock No Time
2-15 The Church Under The Milky Way
2-16 Peter Cupples Fear Of Thunder
2-17 Mental As Anything You're So Strong
2-18 Kids In The Kitchen Bitter Desire
2-19 Goanna Common Ground

Companies, etc.

  • Copyright (c) – Sony Music Entertainment Australia Pty Ltd.

Barcode and Other Identifiers

  • Barcode: 0 888430 531420
Reviews:
  • Malogamand
foobar2000 1.3.17 / Dynamic Range Meter 1.1.1log date: 2019-01-24 20:03:18--------------------------------------------------------------------------------Analyzed: Like, Wow - Wipeout! Australian Pop Of The 80s--------------------------------------------------------------------------------DR Peak RMS Duration Track--------------------------------------------------------------------------------DR6 -0.10 dB -6.90 dB 3:13 01-Like Wow WipeoutDR12 0.00 dB -13.47 dB 4:01 02-Dreams Of Ordinary MenDR8 0.00 dB -9.15 dB 3:39 03-BreakawayDR10 0.00 dB -11.86 dB 3:01 04-Happy ManDR10 0.00 dB -12.12 dB 2:42 05-Gimme Some Lovin'DR9 0.00 dB -10.78 dB 3:32 06-Let's KissDR8 0.00 dB -9.55 dB 3:51 07-Moonlight MarvelDR9 -0.02 dB -9.85 dB 3:41 08-Wanna Be UpDR9 0.00 dB -11.09 dB 4:28 09-Bitter TearsDR7 0.00 dB -8.76 dB 3:38 10-Everything I NeedDR11 0.00 dB -12.32 dB 3:35 11-Too Young For PromisesDR12 0.00 dB -13.68 dB 4:07 12-Say GoodbyeDR7 0.00 dB -7.12 dB 4:11 13-Don't Need LoveDR10 -0.01 dB -11.23 dB 4:07 14-She Has To Be LovedDR5 -0.17 dB -6.66 dB 3:17 15-Stand UpDR11 0.00 dB -12.50 dB 4:16 16-I Can't BelieveDR10 0.00 dB -11.50 dB 3:25 17-Just Like Fire WouldDR9 0.00 dB -11.29 dB 3:55 18-Down The Line (Making Love On The Telephone)DR10 0.00 dB -11.84 dB 4:35 19-We TwoDR8 0.00 dB -9.29 dB 3:00 20-Die Yuppie DieDR9 0.00 dB -10.17 dB 3:20 21-Modern GirlDR8 0.00 dB -10.98 dB 3:13 01-How ComeDR10 0.00 dB -11.57 dB 3:17 02-Baby Get AwayDR6 0.00 dB -9.20 dB 3:49 03-Affair Of The HeartDR6 0.00 dB -7.41 dB 4:59 04-Fall Of RomeDR8 0.00 dB -10.28 dB 4:10 05-Fraction Too Much FrictionDR12 0.00 dB -14.06 dB 3:30 06-Everywhere I GoDR11 -0.02 dB -12.79 dB 3:18 07-No Say In ItDR13 0.00 dB -16.46 dB 3:57 08-Short NoteDR10 0.00 dB -11.36 dB 4:10 09-The TravellerDR9 0.00 dB -10.31 dB 4:18 10-Love An AdventureDR7 -0.33 dB -8.33 dB 4:06 11-Ride The Night AwayDR10 0.00 dB -11.45 dB 4:22 12-Taxi MaryDR10 0.00 dB -12.15 dB 3:24 13-Boys Will Be BoysDR7 -0.60 dB -9.29 dB 4:00 14-No TimeDR7 0.00 dB -8.64 dB 4:57 15-Under The Milky WayDR6 -0.40 dB -7.99 dB 4:07 16-Fear Of ThunderDR7 -0.01 dB -8.20 dB 3:27 17-You're So StrongDR11 0.00 dB -12.97 dB 3:47 18-Bitter DesireDR7 0.00 dB -9.15 dB 4:37 19-Common Ground--------------------------------------------------------------------------------Number of tracks: 40Official DR value: DR9Samplerate: 44100 HzChannels: 2Bits per sample: 16Bitrate: 1009 kbpsCodec: ALAC================================================================================