» » Rashied Ali Quartet / Quintet - Moon Flight

Rashied Ali Quartet / Quintet - Moon Flight download mp3

Rashied Ali Quartet / Quintet - Moon Flight download mp3
Title:
Moon Flight
Performer:
Rashied Ali Quartet
Style:
Free Jazz
Released:
Country:
MP3 album size:
1728 mb
Other formats:
AHX MP3 DMF TTA ADX MPC APE
Genre:
Rating:
4.5 ✪

Rashied Ali Quartet and Quintet - Moon Flight 1974/ - . 0. Rashied Ali Quartet and Quintet - Moon Flight 1974/03 - Moon Flight. Rashied Ali Quartet and Quintet - Moon Flight 1974/04 - A Light. Rashied Ali Quartet and Quintet - Moon Flight 1974/02 - Soul Eyes. Rashied Ali Quartet and Quintet - Moon Flight 1974/05 - Naima. Rashied Ali Quartet and Quintet - Moon Flight 1974/01 - Blood On The Cross. Rashied Ali Quartet and Quintet - Moon Flight 1974/Moon Flight.

Rashied Ali Quartet+Quintet. Rashied Ali Quartet+Quintet - Blood On The Cross 07:11. Rashied Ali Quartet+Quintet - Soul Eyes 09:21. Rashied Ali Quartet+Quintet - Moon Flight 05:19. Rashied Ali Quartet+Quintet - A Light 08:04. Rashied Ali Quartet+Quintet - Naima 06:49. Rashied Ali Quartet+Quintet - Face Of Forgotten Thought 06:14. Flight - Robert Gaza. Pearl Moon - Music for the Inner Spirit - Xavier Quijas Yxayotl. Best of Hearts of Space, No. 1: First Flight - Various Artists. Courtship Of The Moon - David Michael & Randy Mead. Calling The Moon - Susan Maule.

Прослушать Скачать 05:14. Rashied Ali Quartet and Quintet. Прослушать Скачать 06:47. Troubled boy (Album "Satellite Flight: The Journey To Mother Moon") (2014). Прослушать Скачать 01:50.

1 Blood On The Cross 2 Soul Eyes 3 Moon Flight 4 A Light 5 Naima 6 Face Of Forgotten Thought. TITLE "Moon Flight" PERFORMER "Rashied Ali Quartet and Quintet" REM GENRE "Jazz" REM DATE 1974 FILE "01 - Blood On The Cross. wav" WAVE TRACK 01 AUDIO TITLE "Blood On The Cross" INDEX 01 00:00:00 FILE "02 - Soul Eyes. wav" WAVE TRACK 02 AUDIO TITLE "Soul Eyes" INDEX 01 00:00:00 FILE "03 - Moon Flight. wav" WAVE TRACK 03 AUDIO TITLE. Moon Flight" INDEX 01 00:00:00 FILE "04 - A Light. wav" WAVE TRACK 04 AUDIO TITLE "A Light" INDEX 01 00:00:00 FILE "05 - Naima

Rashied Ali Quartet/Quintet - Moon Flight. on Aug 30, 2015 by Jazz Factor. im lifted im different 2chains remix. on Feb 20, 2013 by J -M. op Flight-Moon. as008 flight to the moon album snippet. on Jun 06, 2015 by asrecords. on Sep 22, 2018 by SUPER T SIGMA.

Tracklist Hide Credits

A1 Blood On The Cross
Written-By – R/A*
7:10
A2 Soul Eyes
Written-By – M. Waldron*
9:20
A3 Moon Flight
Written-By – M/B*
5:17
B1 A Light
Written-By – J. Vass*
8:05
B2 Naima
Written-By – J/C*
7:38
B3 Face Of Forgotten Thought
Written-By – Z. Batin*
6:12

Companies, etc.

  • Phonographic Copyright (p) – Survival Records
  • Copyright (c) – Survival Records
  • Recorded At – Studio 77, NYC

Credits

  • Alto Saxophone – James Vass (tracks: A1, A2, B1)
  • Bass – Benny Wilson
  • Drums, Engineer [Recording And Mixing] – Rashied Ali
  • Liner Notes – Stanley Crouch
  • Photography By [Back Photos] – Omar Kharem
  • Photography By [Cover Photograph] – Kira Tolkmitt
  • Piano – Charles Eubanks
  • Tenor Saxophone – Marvin Blackman (tracks: A1 to A3, B2, B3)

Notes

Recorded: 8/26/75
Mixed: 9/19/75

Recorded At: Studio 77, 77 Greene Street, N.Y.C. 10012

Other versions

Category Artist Title (Format) Label Category Country Year
KCR-3023 Rashied Ali Quartet + Quintet* Rashied Ali Quartet + Quintet* - Moon Flight ‎(CD, Album, RE, RM) Knit Classics, Survival Records KCR-3023 US 1999